<?xml version="1.0" standalone="no"?>
  <!DOCTYPE svg PUBLIC "-//W3C//DTD SVG 1.1//EN" "http://www.w3.org/Graphics/SVG/1.1/DTD/svg11.dtd" >
  <svg>
  <metadata>
  Created by font-carrier
  </metadata>
  <defs>
  <font id="FuturaBookC" horiz-adv-x="1060" vert-adv-y="1060" >
    <font-face
      
      font-family="FuturaBookC"
      
      font-weight="400"
      
      font-stretch="normal"
      
      units-per-em="1000"
      
      ascent="729"
      
      descent="-234"
      
    />
      <missing-glyph />

      

      
      <glyph glyph-name="uni21" unicode="&#x21;" d="M176 135L104 135L104 667L176 667L176 135M105 5Q105 5 97.50 12.50Q90 20 90 40Q90 60 105 75Q120 90 140 90Q160 90 175 75Q190 60 190 40Q190 20 175 5Q160-10 140-10Q120-10 105 5Z"  horiz-adv-x="280" vert-adv-y="1000"  />

      
      <glyph glyph-name="uni22" unicode="&#x22;" d="M134 667L121 399L67 399L54 667L134 667M276 667L263 399L209 399L196 667L276 667Z"  horiz-adv-x="330" vert-adv-y="1000"  />

      
      <glyph glyph-name="uni23" unicode="&#x23;" d="M394 0L321 0L353 207L217 207L185 0L112 0L144 207L34 207L44 273L154 273L174 406L64 406L74 472L184 472L214 667L287 667L257 472L393 472L423 667L496 667L466 472L576 472L566 406L456 406L436 273L546 273L536 207L426 207L394 0M363 273L383 406L247 406L227 273L363 273Z"  horiz-adv-x="600" vert-adv-y="1000"  />

      
      <glyph glyph-name="uni24" unicode="&#x24;" d="M467 574L408 535Q393 565 370 585Q351 602 327 606L327 384Q406 353 444 314Q491 266 491 193Q491 121 447 62.50Q403 4 327-8L327-101L267-101L267-12Q192-9 139 42Q93 88 77 160L149 180Q156 127 189 95Q223 60 267 58L267 332Q195 361 157 397Q111 440 111 506Q111 576 156 623Q201 670 267 676L267 763L327 763L327 676Q369 672 403 648Q443 620 467 574M327 304L327 62Q367 73 391 110Q415 147 415 190Q415 237 383 269Q362 290 327 304M267 411L267 606Q228 600 206.50 572Q185 544 185 507Q185 472 210 447Q232 425 267 411Z"  horiz-adv-x="568" vert-adv-y="1000"  />

      
      <glyph glyph-name="uni25" unicode="&#x25;" d="M75 631Q75 631 96 652Q117 673 178 673Q239 673 281 631Q323 589 323 528Q323 467 281 425Q239 383 178 383Q117 383 75 425Q33 467 33 528Q33 589 75 631M178 438Q214 438 238.50 464.50Q263 491 263 528Q263 565 238.50 591.50Q214 618 178 618Q143 618 118 591.50Q93 565 93 528Q93 491 118 464.50Q143 438 178 438M141 10L530 680L569 658L180-13L141 10M429 241Q429 241 450 262Q471 283 532 283Q593 283 635 241Q677 199 677 138Q677 77 635 35Q593-7 532-7Q471-7 429 35Q387 77 387 138Q387 199 429 241M532 48Q568 48 592.50 74.50Q617 101 617 138Q617 175 592.50 201.50Q568 228 532 228Q497 228 472 201.50Q447 175 447 138Q447 101 472 74.50Q497 48 532 48Z"  horiz-adv-x="710" vert-adv-y="1000"  />

      
      <glyph glyph-name="uni26" unicode="&#x26;" d="M545 289L599 244Q566 199 514 145L626 0L534 0L462 93Q416 47 358.50 17.50Q301-12 247-12Q165-12 109.50 41Q54 94 54 173Q54 251 114 311Q145 342 226 394Q160 479 160 537Q160 594 198.50 636Q237 678 305 678Q371 678 408.50 638Q446 598 446 544Q446 477 384 423Q377 417 365.50 408.50Q354 400 330 380L469 201Q520 255 545 289M417 148L269 339Q216 306 175 270Q128 228 128 174Q128 124 161.50 90Q195 56 246 56Q321 56 417 148M257 475L287 434L331 468Q376 504 376 545Q376 578 354.50 596Q333 614 304 614Q273 614 251.50 593Q230 572 230 541Q230 512 257 475Z"  horiz-adv-x="636" vert-adv-y="1000"  />

      
      <glyph glyph-name="uni27" unicode="&#x27;" d="M134 667L121 399L67 399L54 667L134 667Z"  horiz-adv-x="188" vert-adv-y="1000"  />

      
      <glyph glyph-name="uni28" unicode="&#x28;" d="M167 734L230 705Q198 619 184 556Q154 433 154 277Q154 121 184-2Q198-65 230-151L167-180Q139-106 118-30Q80 105 80 277Q80 449 118 584Q139 660 167 734Z"  horiz-adv-x="294" vert-adv-y="1000"  />

      
      <glyph glyph-name="uni29" unicode="&#x29;" d="M127-180L64-151Q96-65 110-2Q140 121 140 277Q140 433 110 556Q96 619 64 705L127 734Q155 660 176 584Q214 449 214 277Q214 105 176-30Q155-106 127-180Z"  horiz-adv-x="294" vert-adv-y="1000"  />

      
      <glyph glyph-name="uni2a" unicode="&#x2a;" d="M139 648L255 605L250 729L318 729L313 605L429 648L450 585L330 551L407 454L353 415L284 518L215 415L161 454L238 551L118 585L139 648Z"  horiz-adv-x="568" vert-adv-y="1000"  />

      
      <glyph glyph-name="uni2b" unicode="&#x2b;" d="M33 300L33 366L214 366L214 538L286 538L286 366L467 366L467 300L286 300L286 128L214 128L214 300L33 300Z"  horiz-adv-x="500" vert-adv-y="1000"  />

      
      <glyph glyph-name="uni2c" unicode="&#x2c;" d="M24-133L106 98L172 74L71-152L24-133Z"  horiz-adv-x="274" vert-adv-y="1000"  />

      
      <glyph glyph-name="uni2d" unicode="&#x2d;" d="M40 176L40 250L260 250L260 176L40 176Z"  horiz-adv-x="300" vert-adv-y="1000"  />

      
      <glyph glyph-name="uniad" unicode="&#xad;" d="M40 176L40 250L260 250L260 176L40 176Z"  horiz-adv-x="300" vert-adv-y="1000"  />

      
      <glyph glyph-name="uni2e" unicode="&#x2e;" d="M79 5Q79 5 71.50 12.50Q64 20 64 40Q64 60 79 75Q94 90 114 90Q134 90 149 75Q164 60 164 40Q164 20 149 5Q134-10 114-10Q94-10 79 5Z"  horiz-adv-x="228" vert-adv-y="1000"  />

      
      <glyph glyph-name="uni2f" unicode="&#x2f;" d="M0-152L502 750L560 720L58-180L0-152Z"  horiz-adv-x="580" vert-adv-y="1000"  />

      
      <glyph glyph-name="uni30" unicode="&#x30;" d="M455 88Q386-12 284-12Q182-12 113 88Q46 185 46 333Q46 481 113 578Q182 678 284 678Q386 678 455 578Q522 481 522 333Q522 185 455 88M399 536Q353 610 284 610Q215 610 169 536Q120 458 120 333Q120 208 169 130Q215 56 284 56Q353 56 399 130Q448 208 448 333Q448 458 399 536Z"  horiz-adv-x="568" vert-adv-y="1000"  />

      
      <glyph glyph-name="uni31" unicode="&#x31;" d="M266 0L266 597L154 597L193 667L340 667L340 0L266 0Z"  horiz-adv-x="568" vert-adv-y="1000"  />

      
      <glyph glyph-name="uni32" unicode="&#x32;" d="M481 0L50 0L293 281Q355 354 371 378Q408 431 408 480Q408 537 371 573.50Q334 610 275 610Q203 610 164 551Q143 519 142 472L68 472Q72 557 118 610Q178 678 276 678Q365 678 423.50 621.50Q482 565 482 479Q482 412 429 336Q402 299 338 225L199 68L481 68L481 0Z"  horiz-adv-x="568" vert-adv-y="1000"  />

      
      <glyph glyph-name="uni33" unicode="&#x33;" d="M160 502L86 502Q89 555 117 600Q167 678 272 678Q361 678 410.50 625Q460 572 460 498Q460 393 374 350Q387 345 399.50 336.50Q412 328 430 310Q448 292 459 260.50Q470 229 470 189Q470 98 411.50 43Q353-12 265-12Q206-12 155 15.50Q104 43 79 103Q66 135 64 173L138 173Q143 132 162 106Q196 56 265 56Q320 56 358 95.50Q396 135 396 191Q396 273 330 303Q297 319 254 317L254 383Q297 380 330 397Q386 426 386 496Q386 545 358 577.50Q330 610 272 610Q216 610 186 572Q163 542 160 502Z"  horiz-adv-x="568" vert-adv-y="1000"  />

      
      <glyph glyph-name="uni34" unicode="&#x34;" d="M436 704L436 177L518 177L518 109L436 109L436 0L362 0L362 109L20 109L436 704M151 177L362 177L362 478L151 177Z"  horiz-adv-x="568" vert-adv-y="1000"  />

      
      <glyph glyph-name="uni35" unicode="&#x35;" d="M479 667L479 599L265 599L222 455Q239 459 264 459Q363 459 423.50 393Q484 327 484 228Q484 120 413.50 54Q343-12 241-12Q155-12 92 40Q56 71 34 108L93 150Q108 120 138 96Q187 56 246 56Q316 56 363 106Q410 156 410 227Q410 299 363.50 345Q317 391 246 391Q183 391 117 345L214 667L479 667Z"  horiz-adv-x="568" vert-adv-y="1000"  />

      
      <glyph glyph-name="uni36" unicode="&#x36;" d="M336 683L392 641L239 428Q267 437 298 437Q393 437 453.50 374Q514 311 514 217Q514 117 449.50 52.50Q385-12 285-12Q211-12 156.50 23.50Q102 59 78 109.50Q54 160 54 215Q54 291 109 368L336 683M284 56Q352 56 396 101.50Q440 147 440 215Q440 282 395.50 325.50Q351 369 283 369Q215 369 171.50 325Q128 281 128 215Q128 147 171.50 101.50Q215 56 284 56Z"  horiz-adv-x="568" vert-adv-y="1000"  />

      
      <glyph glyph-name="uni37" unicode="&#x37;" d="M52 23L431 599L66 599L66 667L556 667L110-16L52 23Z"  horiz-adv-x="568" vert-adv-y="1000"  />

      
      <glyph glyph-name="uni38" unicode="&#x38;" d="M387 347Q488 302 488 184Q488 101 434.50 44.50Q381-12 284-12Q187-12 133.50 44.50Q80 101 80 184Q80 302 181 347Q100 394 100 493Q100 569 149 623.50Q198 678 284 678Q370 678 419 623.50Q468 569 468 493Q468 394 387 347M202.50 410Q202.50 410 218.75 393.50Q235 377 284 377Q333 377 365.50 410Q398 443 398 492Q398 545 364.50 577.50Q331 610 284 610Q237 610 203.50 577.50Q170 545 170 492Q170 443 202.50 410M190 92.50Q190 92.50 208 74.25Q226 56 284 56Q342 56 378 92.50Q414 129 414 186Q414 242 377.50 277.50Q341 313 284 313Q227 313 190.50 277.50Q154 242 154 186Q154 129 190 92.50Z"  horiz-adv-x="568" vert-adv-y="1000"  />

      
      <glyph glyph-name="uni39" unicode="&#x39;" d="M232-16L176 25L329 238Q300 229 270 229Q175 229 114.50 292Q54 355 54 449Q54 549 118.50 613.50Q183 678 283 678Q357 678 411.50 642.50Q466 607 490 556.50Q514 506 514 451Q514 374 459 298L232-16M284 610Q216 610 172 564.50Q128 519 128 451Q128 384 172.50 340.50Q217 297 285 297Q353 297 396.50 341Q440 385 440 451Q440 519 396.50 564.50Q353 610 284 610Z"  horiz-adv-x="568" vert-adv-y="1000"  />

      
      <glyph glyph-name="uni3a" unicode="&#x3a;" d="M79 340Q79 340 71.50 347.50Q64 355 64 375Q64 395 79 410Q94 425 114 425Q134 425 149 410Q164 395 164 375Q164 355 149 340Q134 325 114 325Q94 325 79 340M79 5Q79 5 71.50 12.50Q64 20 64 40Q64 60 79 75Q94 90 114 90Q134 90 149 75Q164 60 164 40Q164 20 149 5Q134-10 114-10Q94-10 79 5Z"  horiz-adv-x="228" vert-adv-y="1000"  />

      
      <glyph glyph-name="uni3b" unicode="&#x3b;" d="M93 340Q93 340 85.50 347.50Q78 355 78 375Q78 395 93 410Q108 425 128 425Q148 425 163 410Q178 395 178 375Q178 355 163 340Q148 325 128 325Q108 325 93 340M24-133L106 98L172 74L71-152L24-133Z"  horiz-adv-x="274" vert-adv-y="1000"  />

      
      <glyph glyph-name="uni3c" unicode="&#x3c;" d="M110 330L467 168L467 96L33 299L33 361L467 564L467 492L110 330Z"  horiz-adv-x="500" vert-adv-y="1000"  />

      
      <glyph glyph-name="uni3d" unicode="&#x3d;" d="M33 384L33 450L467 450L467 384L33 384M33 230L33 296L467 296L467 230L33 230Z"  horiz-adv-x="500" vert-adv-y="1000"  />

      
      <glyph glyph-name="uni3e" unicode="&#x3e;" d="M390 330L33 492L33 564L467 361L467 299L33 96L33 168L390 330Z"  horiz-adv-x="500" vert-adv-y="1000"  />

      
      <glyph glyph-name="uni3f" unicode="&#x3f;" d="M289 286L361 286Q363 231 338 194Q320 167 287.50 150Q255 133 218 133Q155 133 114 174Q73 215 73 277Q73 362 156 398Q175 406 199.50 414Q224 422 241 428Q270 440 287.50 458.50Q305 477 305 515Q305 559 282 583Q259 607 217 607Q209 607 199 605Q189 603 171 595.50Q153 588 141 567Q129 546 129 515Q129 498 135 477L61 477Q57 498 57 523Q57 594 102 634.50Q147 675 217 675Q297 675 338 628Q379 581 379 516Q379 404 268 366Q259 363 242 358Q225 353 213 348.50Q201 344 188 337Q147 316 147 272Q147 240 167 220.50Q187 201 217 201Q256 201 275 231Q289 255 289 286M183 5Q183 5 175.50 12.50Q168 20 168 40Q168 60 183 75Q198 90 218 90Q238 90 253 75Q268 60 268 40Q268 20 253 5Q238-10 218-10Q198-10 183 5Z"  horiz-adv-x="436" vert-adv-y="1000"  />

      
      <glyph glyph-name="uni40" unicode="&#x40;" d="M480 427L493 491L545 491Q507 330 498 242L498 234Q501 188 535 188Q574 188 611 242Q648 296 648 379Q648 490 570.50 559Q493 628 381 628Q257 628 170.50 541.50Q84 455 84 330Q84 279 100 230Q116 181 150 136Q184 91 246 63Q308 35 390 35Q500 35 599 81L614 35Q514-13 389-13Q233-13 133 83Q33 179 33 331Q33 476 133.50 576Q234 676 380 676Q511 676 603.50 593.50Q696 511 696 380Q696 280 645.50 212Q595 144 533 144Q502 144 482 162.50Q462 181 460 211Q414 140 335 140Q272 140 233.50 186Q195 232 195 301Q195 384 244.50 444Q294 504 370 504Q413 504 440.50 482.50Q468 461 480 427M346 194Q397 194 429 241.50Q461 289 461 353Q461 402 436 426Q411 450 375 450Q324 450 288.50 405.50Q253 361 253 303Q253 252 280.50 223Q308 194 346 194Z"  horiz-adv-x="733" vert-adv-y="1000"  />

      
      <glyph glyph-name="uni41" unicode="&#x41;" d="M532 0L454 188L170 188L90 0L8 0L315 699L614 0L532 0M199 258L425 258L313 525L199 258Z"  horiz-adv-x="622" vert-adv-y="1000"  />

      
      <glyph glyph-name="uni42" unicode="&#x42;" d="M86 667L206 667Q306 667 359 625Q419 579 419 487Q419 401 353 356Q417 340 448.50 291.50Q480 243 480 188Q480 143 460.50 105Q441 67 412 44Q356 0 252 0L86 0L86 667M160 597L160 374L216 374Q231 374 245 375.50Q259 377 278.50 383.50Q298 390 312.50 401Q327 412 337 434Q347 456 347 485Q347 516 335 538.50Q323 561 308 572Q293 583 272 589Q251 595 240 596Q229 597 218 597L160 597M160 308L160 70L245 70Q326 70 362 98Q406 130 406 190Q406 257 349 288Q313 308 236 308L160 308Z"  horiz-adv-x="530" vert-adv-y="1000"  />

      
      <glyph glyph-name="uni43" unicode="&#x43;" d="M596 612L596 520Q556 560 509 582Q452 608 394 608Q279 608 202.50 527.50Q126 447 126 330Q126 204 209.50 131Q293 58 395 58Q459 58 519 89Q561 110 596 145L596 53Q505-12 395-12Q247-12 148.50 87Q50 186 50 331Q50 480 149.50 579Q249 678 399 678Q509 678 596 612Z"  horiz-adv-x="646" vert-adv-y="1000"  />

      
      <glyph glyph-name="uni44" unicode="&#x44;" d="M86 0L86 667L222 667Q376 667 468 589Q582 494 582 333Q582 177 465 77Q417 36 362 18Q307 0 221 0L86 0M160 597L160 70L225 70Q344 70 416 130Q506 206 506 333Q506 453 429 525Q352 597 225 597L160 597Z"  horiz-adv-x="632" vert-adv-y="1000"  />

      
      <glyph glyph-name="uni45" unicode="&#x45;" d="M432 667L432 597L160 597L160 399L424 399L424 329L160 329L160 70L432 70L432 0L86 0L86 667L432 667Z"  horiz-adv-x="482" vert-adv-y="1000"  />

      
      <glyph glyph-name="uni46" unicode="&#x46;" d="M390 667L390 597L160 597L160 400L382 400L382 330L160 330L160 0L86 0L86 667L390 667Z"  horiz-adv-x="434" vert-adv-y="1000"  />

      
      <glyph glyph-name="uni47" unicode="&#x47;" d="M430 265L430 335L708 335L708 319Q708 195 644 108Q555-12 396-12Q248-12 149 87.50Q50 187 50 333Q50 479 149.50 578.50Q249 678 398 678Q516 678 602 612Q646 578 679 533L624 483Q595 524 561 552Q492 608 399 608Q280 608 203 529Q126 450 126 332Q126 246 168 181.50Q210 117 270.50 87.50Q331 58 397 58Q463 58 517.50 88.50Q572 119 601 170Q626 213 628 265L430 265Z"  horiz-adv-x="758" vert-adv-y="1000"  />

      
      <glyph glyph-name="uni48" unicode="&#x48;" d="M160 667L160 396L502 396L502 667L576 667L576 0L502 0L502 326L160 326L160 0L86 0L86 667L160 667Z"  horiz-adv-x="662" vert-adv-y="1000"  />

      
      <glyph glyph-name="uni49" unicode="&#x49;" d="M86 667L160 667L160 0L86 0L86 667Z"  horiz-adv-x="246" vert-adv-y="1000"  />

      
      <glyph glyph-name="uni4a" unicode="&#x4a;" d="M146 667L220 667L220 128Q220 65 207.50 23.50Q195-18 155-45Q118-69 73-69Q10-69-46-20L-5 38Q36 1 72 1Q108 1 126 26Q146 51 146 128L146 667Z"  horiz-adv-x="306" vert-adv-y="1000"  />

      
      <glyph glyph-name="uni4b" unicode="&#x4b;" d="M160 667L160 381L444 667L544 667L232 356L554 0L452 0L179 306L160 287L160 0L86 0L86 667L160 667Z"  horiz-adv-x="568" vert-adv-y="1000"  />

      
      <glyph glyph-name="uni4c" unicode="&#x4c;" d="M86 667L160 667L160 70L344 70L344 0L86 0L86 667Z"  horiz-adv-x="358" vert-adv-y="1000"  />

      
      <glyph glyph-name="uni4d" unicode="&#x4d;" d="M139 0L63 0L174 704L430 141L691 705L795 0L719 0L656 464L429-28L205 464L139 0Z"  horiz-adv-x="863" vert-adv-y="1000"  />

      
      <glyph glyph-name="uni4e" unicode="&#x4e;" d="M160 0L86 0L86 695L606 150L606 667L680 667L680-30L160 515L160 0Z"  horiz-adv-x="766" vert-adv-y="1000"  />

      
      <glyph glyph-name="uni4f" unicode="&#x4f;" d="M643.50 87Q643.50 87 593.25 37.50Q543-12 397-12Q251-12 150.50 87Q50 186 50 333Q50 481 151 579.50Q252 678 397 678Q542 678 643 579.50Q744 481 744 333Q744 186 643.50 87M589 528Q589 528 549.50 568Q510 608 397 608Q284 608 205 528Q126 448 126 333Q126 218 205 138Q284 58 397 58Q510 58 589 138Q668 218 668 333Q668 448 589 528Z"  horiz-adv-x="794" vert-adv-y="1000"  />

      
      <glyph glyph-name="uni50" unicode="&#x50;" d="M86 667L207 667Q321 667 375 620Q436 568 436 477Q436 399 383.50 344.50Q331 290 225 290L160 290L160 0L86 0L86 667M160 597L160 360L221 360Q287 360 324.50 392Q362 424 362 481Q362 597 215 597L160 597Z"  horiz-adv-x="456" vert-adv-y="1000"  />

      
      <glyph glyph-name="uni51" unicode="&#x51;" d="M652-7L598 49Q508-12 397-12Q252-12 151 87Q50 186 50 333Q50 481 151 579.50Q252 678 397 678Q542 678 643 579.50Q744 481 744 333Q744 193 650 94L748-7L652-7M480 268L597 148Q668 225 668 333Q668 447 588.50 527.50Q509 608 397 608Q284 608 205 528Q126 448 126 333Q126 218 205 138Q284 58 397 58Q478 58 545 102L384 268L480 268Z"  horiz-adv-x="794" vert-adv-y="1000"  />

      
      <glyph glyph-name="uni52" unicode="&#x52;" d="M86 667L193 667Q301 667 355 630Q428 581 428 482Q428 405 381.50 354Q335 303 260 298L472 0L382 0L179 292L160 292L160 0L86 0L86 667M160 597L160 358L207 358Q276 358 315 390Q354 422 354 480Q354 548 301 578Q267 597 205 597L160 597Z"  horiz-adv-x="502" vert-adv-y="1000"  />

      
      <glyph glyph-name="uni53" unicode="&#x53;" d="M443 574L384 535Q368 566 345 585Q315 608 270 608Q220 608 189 579.50Q158 551 158 505Q158 471 183 447Q203 427 253 405L317 377Q388 346 420 314Q468 266 468 193Q468 102 408 45Q348-12 257-12Q167-12 112 42Q67 86 50 160L122 180Q129 130 162 95Q199 58 258 58Q322 58 357 96.50Q392 135 392 190Q392 238 359 268Q340 286 279 314L219 342Q158 370 130 397Q84 441 84 506Q84 583 136.50 630.50Q189 678 271 678Q333 678 378 648Q419 621 443 574Z"  horiz-adv-x="518" vert-adv-y="1000"  />

      
      <glyph glyph-name="uni54" unicode="&#x54;" d="M412 597L250 597L250 0L176 0L176 597L14 597L14 667L412 667L412 597Z"  horiz-adv-x="426" vert-adv-y="1000"  />

      
      <glyph glyph-name="uni55" unicode="&#x55;" d="M160 667L160 258Q160 220 161.50 199Q163 178 175.50 147.50Q188 117 213 96Q258 58 323 58Q388 58 433 96Q458 117 470.50 147.50Q483 178 484.50 199Q486 220 486 258L486 667L560 667L560 238Q560 136 518 78Q487 36 436.50 12Q386-12 323-12Q260-12 209.50 12Q159 36 128 78Q86 136 86 238L86 667L160 667Z"  horiz-adv-x="646" vert-adv-y="1000"  />

      
      <glyph glyph-name="uni56" unicode="&#x56;" d="M8 667L90 667L278 158L466 667L548 667L278-40L8 667Z"  horiz-adv-x="556" vert-adv-y="1000"  />

      
      <glyph glyph-name="uni57" unicode="&#x57;" d="M8 667L90 667L266 167L475 701L673 167L868 667L950 667L670-35L474 499L264-35L8 667Z"  horiz-adv-x="958" vert-adv-y="1000"  />

      
      <glyph glyph-name="uni58" unicode="&#x58;" d="M14 0L211 345L32 667L116 667L254 416L396 667L480 667L297 345L490 0L406 0L253 274L98 0L14 0Z"  horiz-adv-x="504" vert-adv-y="1000"  />

      
      <glyph glyph-name="uni59" unicode="&#x59;" d="M227 0L227 287L8 667L94 667L264 369L436 667L522 667L301 287L301 0L227 0Z"  horiz-adv-x="530" vert-adv-y="1000"  />

      
      <glyph glyph-name="uni5a" unicode="&#x5a;" d="M512 667L148 70L502 70L502 0L24 0L388 597L71 597L71 667L512 667Z"  horiz-adv-x="536" vert-adv-y="1000"  />

      
      <glyph glyph-name="uni5b" unicode="&#x5b;" d="M248 663L152 663L152-110L248-110L248-176L80-176L80 729L248 729L248 663Z"  horiz-adv-x="290" vert-adv-y="1000"  />

      
      <glyph glyph-name="uni5c" unicode="&#x5c;" d="M580-152L522-180L20 720L78 750L580-152Z"  horiz-adv-x="580" vert-adv-y="1000"  />

      
      <glyph glyph-name="uni5d" unicode="&#x5d;" d="M42-110L138-110L138 663L42 663L42 729L210 729L210-176L42-176L42-110Z"  horiz-adv-x="290" vert-adv-y="1000"  />

      
      <glyph glyph-name="uni5e" unicode="&#x5e;" d="M250 612L104 365L26 365L203 667L297 667L474 365L396 365L250 612Z"  horiz-adv-x="500" vert-adv-y="1000"  />

      
      <glyph glyph-name="uni5f" unicode="&#x5f;" d="M0-132L0-68L500-68L500-132L0-132Z"  horiz-adv-x="500" vert-adv-y="1000"  />

      
      <glyph glyph-name="uni60" unicode="&#x60;" d="M249 497L114 632L188 666L293 521L249 497Z"  horiz-adv-x="500" vert-adv-y="1000"  />

      
      <glyph glyph-name="uni61" unicode="&#x61;" d="M386 356L386 415L458 415L458 0L386 0L386 58Q332-12 244-12Q160-12 101 46Q42 104 42 208Q42 310 100.50 367.50Q159 425 244 425Q334 425 386 356M252 361Q195 361 155.50 320.50Q116 280 116 208Q116 139 152.50 95.50Q189 52 252 52Q315 52 352.50 97Q390 142 390 207Q390 281 348 321Q306 361 252 361Z"  horiz-adv-x="526" vert-adv-y="1000"  />

      
      <glyph glyph-name="uni62" unicode="&#x62;" d="M140 58L140 0L68 0L68 729L140 729L140 357Q195 425 282 425Q375 425 429.50 359.50Q484 294 484 205Q484 115 430 51.50Q376-12 285-12Q194-12 140 58M275 52Q336 52 373 96.50Q410 141 410 205Q410 277 369 319Q328 361 274 361Q220 361 178 319Q136 277 136 206Q136 141 174.50 96.50Q213 52 275 52Z"  horiz-adv-x="526" vert-adv-y="1000"  />

      
      <glyph glyph-name="uni63" unicode="&#x63;" d="M393 385L393 299Q344 361 263 361Q202 361 159 319.50Q116 278 116 206Q116 134 159 93Q202 52 262 52Q342 52 396 117L396 31Q337-12 264-12Q167-12 104.50 49.50Q42 111 42 205Q42 300 105 362.50Q168 425 264 425Q336 425 393 385Z"  horiz-adv-x="438" vert-adv-y="1000"  />

      
      <glyph glyph-name="uni64" unicode="&#x64;" d="M386 356L386 729L458 729L458 0L386 0L386 58Q332-12 244-12Q160-12 101 46Q42 104 42 208Q42 310 100.50 367.50Q159 425 244 425Q334 425 386 356M252 361Q195 361 155.50 320.50Q116 280 116 208Q116 139 152.50 95.50Q189 52 252 52Q315 52 352.50 97Q390 142 390 207Q390 281 348 321Q306 361 252 361Z"  horiz-adv-x="526" vert-adv-y="1000"  />

      
      <glyph glyph-name="uni65" unicode="&#x65;" d="M376 139L436 106Q415 66 385 39Q328-12 247-12Q163-12 102.50 42.50Q42 97 42 205Q42 300 96.50 362.50Q151 425 243 425Q347 425 400 349Q442 289 439 193L116 193Q117 130 155 91Q193 52 248 52Q297 52 333 82Q361 106 376 139M121 253L365 253Q356 302 322.50 331.50Q289 361 243 361Q198 361 163.50 330.50Q129 300 121 253Z"  horiz-adv-x="481" vert-adv-y="1000"  />

      
      <glyph glyph-name="uni66" unicode="&#x66;" d="M244 349L142 349L142 0L70 0L70 349L30 349L30 415L70 415L70 594Q70 677 110 711Q142 738 193 738Q220 738 244 729L244 659Q222 668 197 668Q164 668 151 646Q142 631 142 586L142 415L244 415L244 349Z"  horiz-adv-x="240" vert-adv-y="1000"  />

      
      <glyph glyph-name="uni67" unicode="&#x67;" d="M386 356L386 415L458 415L458 9Q458-100 418-154Q361-231 252-231Q160-231 104-175Q50-121 50-41L121-41Q121-91 153-127Q189-167 253-167Q328-167 363-109Q386-72 386-3L386 58Q332-12 244-12Q160-12 101 46Q42 104 42 208Q42 310 100.50 367.50Q159 425 244 425Q334 425 386 356M252 361Q195 361 155.50 320.50Q116 280 116 208Q116 139 152.50 95.50Q189 52 252 52Q315 52 352.50 97Q390 142 390 207Q390 281 348 321Q306 361 252 361Z"  horiz-adv-x="526" vert-adv-y="1000"  />

      
      <glyph glyph-name="uni68" unicode="&#x68;" d="M68 0L68 729L140 729L140 367Q184 425 259 425Q339 425 378 368Q402 333 402 257L402 0L330 0L330 255Q330 306 311 331Q288 361 243 361Q197 361 170 329Q140 294 140 217L140 0L68 0Z"  horiz-adv-x="470" vert-adv-y="1000"  />

      
      <glyph glyph-name="uni69" unicode="&#x69;" d="M68 415L140 415L140 0L68 0L68 415M68 536Q68 536 60.50 543.50Q53 551 53 572Q53 593 68 608Q83 623 104 623Q125 623 140 608Q155 593 155 572Q155 551 140 536Q125 521 104 521Q83 521 68 536Z"  horiz-adv-x="208" vert-adv-y="1000"  />

      
      <glyph glyph-name="uni6a" unicode="&#x6a;" d="M68 415L140 415L140-234L68-234L68 415M68 536Q68 536 60.50 543.50Q53 551 53 572Q53 593 68 608Q83 623 104 623Q125 623 140 608Q155 593 155 572Q155 551 140 536Q125 521 104 521Q83 521 68 536Z"  horiz-adv-x="208" vert-adv-y="1000"  />

      
      <glyph glyph-name="uni6b" unicode="&#x6b;" d="M68 729L140 729L140 261L292 415L386 415L208 237L418 0L324 0L158 189L140 171L140 0L68 0L68 729Z"  horiz-adv-x="422" vert-adv-y="1000"  />

      
      <glyph glyph-name="uni6c" unicode="&#x6c;" d="M68 729L140 729L140 0L68 0L68 729Z"  horiz-adv-x="208" vert-adv-y="1000"  />

      
      <glyph glyph-name="uni6d" unicode="&#x6d;" d="M68 0L68 415L140 415L140 371Q177 425 243 425Q319 425 357 358Q400 425 482 425Q617 425 617 263L617 0L545 0L545 252Q545 282 541.50 302.50Q538 323 520.50 342Q503 361 471 361Q379 361 379 231L379 0L307 0L307 246Q307 361 231 361Q140 361 140 226L140 0L68 0Z"  horiz-adv-x="685" vert-adv-y="1000"  />

      
      <glyph glyph-name="uni6e" unicode="&#x6e;" d="M68 0L68 415L140 415L140 367Q184 425 259 425Q339 425 378 368Q402 333 402 257L402 0L330 0L330 255Q330 306 311 331Q288 361 243 361Q197 361 170 329Q140 294 140 217L140 0L68 0Z"  horiz-adv-x="470" vert-adv-y="1000"  />

      
      <glyph glyph-name="uni6f" unicode="&#x6f;" d="M419.50 50Q419.50 50 388.25 19Q357-12 262-12Q167-12 104.50 50Q42 112 42 206Q42 301 104.50 363Q167 425 262 425Q357 425 419.50 363Q482 301 482 206Q482 112 419.50 50M365.50 320Q365.50 320 344.25 340.50Q323 361 262 361Q201 361 158.50 319.50Q116 278 116 206Q116 134 159 93Q202 52 262 52Q322 52 365 93Q408 134 408 206Q408 279 365.50 320Z"  horiz-adv-x="524" vert-adv-y="1000"  />

      
      <glyph glyph-name="uni70" unicode="&#x70;" d="M140 58L140-234L68-234L68 415L140 415L140 357Q195 425 282 425Q375 425 429.50 359.50Q484 294 484 205Q484 115 430 51.50Q376-12 285-12Q194-12 140 58M275 52Q336 52 373 96.50Q410 141 410 205Q410 277 369 319Q328 361 274 361Q220 361 178 319Q136 277 136 206Q136 141 174.50 96.50Q213 52 275 52Z"  horiz-adv-x="526" vert-adv-y="1000"  />

      
      <glyph glyph-name="uni71" unicode="&#x71;" d="M386 356L386 415L458 415L458-234L386-234L386 58Q332-12 244-12Q160-12 101 46Q42 104 42 208Q42 310 100.50 367.50Q159 425 244 425Q334 425 386 356M252 361Q195 361 155.50 320.50Q116 280 116 208Q116 139 152.50 95.50Q189 52 252 52Q315 52 352.50 97Q390 142 390 207Q390 281 348 321Q306 361 252 361Z"  horiz-adv-x="526" vert-adv-y="1000"  />

      
      <glyph glyph-name="uni72" unicode="&#x72;" d="M68 0L68 415L140 415L140 370Q175 425 234 425Q264 425 298 408L264 343Q244 357 222 357Q184 357 164 331Q140 299 140 219L140 0L68 0Z"  horiz-adv-x="296" vert-adv-y="1000"  />

      
      <glyph glyph-name="uni73" unicode="&#x73;" d="M298 350L239 319Q222 361 181 361Q160 361 145.50 349Q131 337 131 314Q131 293 144.50 282.50Q158 272 198 255Q277 222 302 191Q324 164 324 124Q324 61 283.50 24.50Q243-12 181-12Q169-12 155-9.50Q141-7 116.50 1.50Q92 10 70 34Q48 58 36 94L98 120Q123 52 182 52Q215 52 232.50 72Q250 92 250 118Q250 132 245.50 142.50Q241 153 230.50 161Q220 169 210.50 174Q201 179 183 187Q103 222 82 248Q63 272 63 309Q63 363 96.50 394Q130 425 184 425Q263 425 298 350Z"  horiz-adv-x="352" vert-adv-y="1000"  />

      
      <glyph glyph-name="uni74" unicode="&#x74;" d="M214 349L142 349L142 0L70 0L70 349L26 349L26 415L70 415L70 565L142 565L142 415L214 415L214 349Z"  horiz-adv-x="214" vert-adv-y="1000"  />

      
      <glyph glyph-name="uni75" unicode="&#x75;" d="M140 415L140 173Q140 110 160 84Q185 52 233 52Q281 52 306 84Q326 110 326 173L326 415L398 415L398 165Q398 81 360 40Q311-12 233-12Q155-12 106 40Q68 81 68 165L68 415L140 415Z"  horiz-adv-x="466" vert-adv-y="1000"  />

      
      <glyph glyph-name="uni76" unicode="&#x76;" d="M8 415L88 415L212 135L336 415L416 415L212-27L8 415Z"  horiz-adv-x="424" vert-adv-y="1000"  />

      
      <glyph glyph-name="uni77" unicode="&#x77;" d="M8 415L88 415L211 133L341 447L470 133L594 415L674 415L468-29L340 281L212-29L8 415Z"  horiz-adv-x="682" vert-adv-y="1000"  />

      
      <glyph glyph-name="uni78" unicode="&#x78;" d="M8 0L185 222L34 415L122 415L229 274L338 415L426 415L274 221L446 0L358 0L227 169L96 0L8 0Z"  horiz-adv-x="454" vert-adv-y="1000"  />

      
      <glyph glyph-name="uni79" unicode="&#x79;" d="M65-234L199 39L8 415L90 415L237 118L372 415L452 415L145-234L65-234Z"  horiz-adv-x="460" vert-adv-y="1000"  />

      
      <glyph glyph-name="uni7a" unicode="&#x7a;" d="M452 415L152 66L440 66L440 0L8 0L308 349L66 349L66 415L452 415Z"  horiz-adv-x="460" vert-adv-y="1000"  />

      
      <glyph glyph-name="uni7b" unicode="&#x7b;" d="M275 530L275 360Q275 312 262 289Q246 262 214 247Q246 232 262 205Q275 182 275 134L275-36Q275-87 294-105Q313-123 356-123L371-123L371-184L344-184Q281-184 251-164Q203-132 203-48L203 129Q203 168 190 190Q174 216 146 218L146 276Q174 278 190 304Q203 326 203 365L203 542Q203 626 251 658Q281 678 344 678L371 678L371 617L356 617Q313 617 294 599Q275 581 275 530Z"  horiz-adv-x="501" vert-adv-y="1000"  />

      
      <glyph glyph-name="uni7c" unicode="&#x7c;" d="M214-250L214 750L286 750L286-250L214-250Z"  horiz-adv-x="500" vert-adv-y="1000"  />

      
      <glyph glyph-name="uni7d" unicode="&#x7d;" d="M226-36L226 134Q226 182 239 205Q255 232 287 247Q255 262 239 289Q226 312 226 360L226 530Q226 581 207 599Q188 617 145 617L130 617L130 678L157 678Q220 678 250 658Q298 626 298 542L298 365Q298 326 311 304Q327 278 355 276L355 218Q327 216 311 190Q298 168 298 129L298-48Q298-132 250-164Q220-184 157-184L130-184L130-123L145-123Q188-123 207-105Q226-87 226-36Z"  horiz-adv-x="501" vert-adv-y="1000"  />

      
      <glyph glyph-name="uni7e" unicode="&#x7e;" d="M530 727L574 701Q555 657 524 628Q485 589 428 589Q394 589 320 623Q251 655 225 655Q196 655 173 635Q154 619 138 583L94 609Q117 658 142 687Q176 725 229 725Q271 725 342 691Q411 659 437 659Q474 659 498 683Q517 700 530 727Z"  horiz-adv-x="668" vert-adv-y="1000"  />

      
      <glyph glyph-name="unia4" unicode="&#xa4;" d="M94 636L189 542Q248 593 334 593Q420 593 479 542L574 636L614 596L519 501Q570 441 570 359Q570 276 519 217L613 123L573 83L479 176Q420 125 334 125Q248 125 189 176L95 83L55 123L149 217Q98 276 98 359Q98 442 149 501L54 596L94 636M214 237Q214 237 238 213Q262 189 334 189Q406 189 454 237Q502 285 502 359Q502 433 454 481Q406 529 334 529Q262 529 214 481Q166 433 166 359Q166 285 214 237Z"  horiz-adv-x="668" vert-adv-y="1000"  />

      
      <glyph glyph-name="unia6" unicode="&#xa6;" d="M214 390L214 750L286 750L286 390L214 390M214-250L214 110L286 110L286-250L214-250Z"  horiz-adv-x="500" vert-adv-y="1000"  />

      
      <glyph glyph-name="unia7" unicode="&#xa7;" d="M464 548L392 548Q393 590 375 625Q350 671 294 671Q247 671 218.50 641.50Q190 612 190 569Q190 548 199 530.50Q208 513 217 503.50Q226 494 249 482.50Q272 471 279 468Q286 465 312 456Q385 430 414 405Q467 359 467 281Q467 228 440 187.50Q413 147 366 125Q451 87 451-11Q451-81 407-132Q363-183 276-183Q215-183 175-155.50Q135-128 118-85Q102-46 104 2L176 2Q176-44 195-74Q222-117 277-117Q324-117 350.50-89.50Q377-62 377-14Q377 30 353.50 52.50Q330 75 289 91Q285 92 264 99.50Q243 107 233.50 111.50Q224 116 206.50 123.50Q189 131 175.50 140Q162 149 151 159Q101 204 101 278Q101 393 202 435Q118 479 118 571Q118 640 163.50 688.50Q209 737 293 737Q406 737 447 641Q465 597 464 548M361.50 357.50Q361.50 357.50 345.75 373.25Q330 389 284 389Q238 389 206.50 357.50Q175 326 175 280Q175 234 206.50 202.50Q238 171 284 171Q330 171 361.50 202.50Q393 234 393 280Q393 326 361.50 357.50Z"  horiz-adv-x="568" vert-adv-y="1000"  />

      
      <glyph glyph-name="unia9" unicode="&#xa9;" d="M25 333Q25 476 126.50 577Q228 678 370 678Q512 678 613.50 577Q715 476 715 333Q715 191 613.50 90Q512-11 370-11Q228-11 126.50 90Q25 191 25 333M659 333Q659 453 574.50 537.50Q490 622 370 622Q250 622 165.50 537.50Q81 453 81 333Q81 214 165.50 129.50Q250 45 370 45Q490 45 574.50 129.50Q659 214 659 333M514 497L514 417Q490 447 456 461Q422 475 392 475Q335 475 294.50 435.50Q254 396 254 329Q254 261 295 223Q336 185 391 185Q466 185 517 246L517 165Q462 125 393 125Q303 125 244 182Q185 239 185 328Q185 416 244.50 475.50Q304 535 393 535Q462 535 514 497Z"  horiz-adv-x="740" vert-adv-y="1000"  />

      
      <glyph glyph-name="uniab" unicode="&#xab;" d="M112 212L232 66L186 30L36 212L186 400L232 363L112 212M260 212L380 66L334 30L184 212L334 400L380 363L260 212Z"  horiz-adv-x="430" vert-adv-y="1000"  />

      
      <glyph glyph-name="uniac" unicode="&#xac;" d="M467 0L397 0L397 203L33 203L33 267L467 267L467 0Z"  horiz-adv-x="500" vert-adv-y="1000"  />

      
      <glyph glyph-name="uniae" unicode="&#xae;" d="M131 87Q131 87 82 136Q33 185 33 332Q33 479 131 577Q229 675 376 675Q523 675 621 577Q719 479 719 332Q719 185 621 87Q523-11 376-11Q229-11 131 87M581 127Q581 127 622 168Q663 209 663 332Q663 455 581 537Q499 619 376 619Q253 619 171 537Q89 455 89 332Q89 209 171 127Q253 45 376 45Q499 45 581 127M515 145L447 145L325 303L325 145L271 145L271 519L339 519Q483 519 483 412Q483 370 456 341.50Q429 313 386 308L515 145M325 471L325 351L347 351Q429 351 429 410Q429 427 423 439Q417 451 409.50 457Q402 463 389 466.50Q376 470 367 470.50Q358 471 345 471L325 471Z"  horiz-adv-x="752" vert-adv-y="1000"  />

      
      <glyph glyph-name="unib0" unicode="&#xb0;" d="M147.50 432.50Q147.50 432.50 127.75 452.25Q108 472 108 531Q108 590 147.50 629.50Q187 669 246 669Q305 669 344.50 629.50Q384 590 384 531Q384 472 344.50 432.50Q305 393 246 393Q187 393 147.50 432.50M185.50 598.50Q185.50 598.50 171.75 586.25Q158 574 158 531Q158 488 185.50 463.50Q213 439 246 439Q279 439 306.50 463.50Q334 488 334 531Q334 574 306.50 598.50Q279 623 246 623Q213 623 185.50 598.50Z"  horiz-adv-x="493" vert-adv-y="1000"  />

      
      <glyph glyph-name="unib1" unicode="&#xb1;" d="M33 345L33 411L214 411L214 582L286 582L286 411L467 411L467 345L286 345L286 174L214 174L214 345L33 345M33 67L33 133L467 133L467 67L33 67Z"  horiz-adv-x="500" vert-adv-y="1000"  />

      
      <glyph glyph-name="unib5" unicode="&#xb5;" d="M140-170L68-170L68 415L140 415L140 208Q140 128 170 90Q200 52 258 52Q324 52 359 111Q383 150 383 217L383 415L455 415L455 0L383 0L383 86Q367 42 334 15Q301-12 256-12Q222-12 194 5Q166 22 156.50 35Q147 48 140 61L140-170Z"  horiz-adv-x="523" vert-adv-y="1000"  />

      
      <glyph glyph-name="uni03BC" unicode="&#x03BC;" d="M140-170L68-170L68 415L140 415L140 208Q140 128 170 90Q200 52 258 52Q324 52 359 111Q383 150 383 217L383 415L455 415L455 0L383 0L383 86Q367 42 334 15Q301-12 256-12Q222-12 194 5Q166 22 156.50 35Q147 48 140 61L140-170Z"  horiz-adv-x="523" vert-adv-y="1000"  />

      
      <glyph glyph-name="unib6" unicode="&#xb6;" d="M282-99L220-99L220 314L205 314Q125 314 73.50 363Q22 412 22 488Q22 538 47.50 583.50Q73 629 130 650Q174 667 242 667L510 667L510 609L450 609L450-99L388-99L388 609L282 609L282-99Z"  horiz-adv-x="580" vert-adv-y="1000"  />

      
      <glyph glyph-name="unib7" unicode="&#xb7;" d="M55 295Q55 295 45.50 304.50Q36 314 36 340Q36 366 55 385Q74 404 100 404Q126 404 145 385Q164 366 164 340Q164 314 145 295Q126 276 100 276Q74 276 55 295Z"  horiz-adv-x="200" vert-adv-y="1000"  />

      
      <glyph glyph-name="uni2219" unicode="&#x2219;" d="M55 295Q55 295 45.50 304.50Q36 314 36 340Q36 366 55 385Q74 404 100 404Q126 404 145 385Q164 366 164 340Q164 314 145 295Q126 276 100 276Q74 276 55 295Z"  horiz-adv-x="200" vert-adv-y="1000"  />

      
      <glyph glyph-name="unibb" unicode="&#xbb;" d="M170 218L50 364L96 400L246 218L96 30L50 67L170 218M318 218L198 364L244 400L394 218L244 30L198 67L318 218Z"  horiz-adv-x="430" vert-adv-y="1000"  />

      
      <glyph glyph-name="uni0401" unicode="&#x0401;" d="M432 667L432 597L160 597L160 399L424 399L424 329L160 329L160 70L432 70L432 0L86 0L86 667L432 667M127 748Q127 748 119.50 755.50Q112 763 112 784Q112 805 127 820Q142 835 163 835Q184 835 199 820Q214 805 214 784Q214 763 199 748Q184 733 163 733Q142 733 127 748M317 748Q317 748 309.50 755.50Q302 763 302 784Q302 805 317 820Q332 835 353 835Q374 835 389 820Q404 805 404 784Q404 763 389 748Q374 733 353 733Q332 733 317 748Z"  horiz-adv-x="482" vert-adv-y="1000"  />

      
      <glyph glyph-name="uni0402" unicode="&#x0402;" d="M450 597L248 597L248 401Q332 408 386 408Q478 408 536 376Q636 321 636 190Q636 98 580.50 43Q525-12 438-12Q369-12 310 19L334 88Q385 58 439 58Q494 58 527 93Q560 128 560 187Q560 280 489 317Q447 338 378 338Q320 338 248 331L248 0L174 0L174 597L14 597L14 667L450 667L450 597Z"  horiz-adv-x="678" vert-adv-y="1000"  />

      
      <glyph glyph-name="uni0403" unicode="&#x0403;" d="M86 0L86 667L390 667L390 597L160 597L160 0L86 0M322 882L392 837L239 720L196 752L322 882Z"  horiz-adv-x="404" vert-adv-y="1000"  />

      
      <glyph glyph-name="uni0404" unicode="&#x0404;" d="M595 612L595 520Q559 556 508 580Q444 608 373 608Q272 608 204.50 542.50Q137 477 129 380L515 380L515 310L126 310Q125 200 199 129Q273 58 374 58Q449 58 518 91Q565 114 595 145L595 53Q494-12 374-12Q226-12 138 85Q50 182 50 331Q50 483 139.50 580.50Q229 678 378 678Q499 678 595 612Z"  horiz-adv-x="645" vert-adv-y="1000"  />

      
      <glyph glyph-name="uni0405" unicode="&#x0405;" d="M443 574L384 535Q368 566 345 585Q315 608 270 608Q220 608 189 579.50Q158 551 158 505Q158 471 183 447Q203 427 253 405L317 377Q388 346 420 314Q468 266 468 193Q468 102 408 45Q348-12 257-12Q167-12 112 42Q67 86 50 160L122 180Q129 130 162 95Q199 58 258 58Q322 58 357 96.50Q392 135 392 190Q392 238 359 268Q340 286 279 314L219 342Q158 370 130 397Q84 441 84 506Q84 583 136.50 630.50Q189 678 271 678Q333 678 378 648Q419 621 443 574Z"  horiz-adv-x="518" vert-adv-y="1000"  />

      
      <glyph glyph-name="uni0406" unicode="&#x0406;" d="M86 667L160 667L160 0L86 0L86 667Z"  horiz-adv-x="246" vert-adv-y="1000"  />

      
      <glyph glyph-name="uni0407" unicode="&#x0407;" d="M86 667L160 667L160 0L86 0L86 667M15 748Q15 748 7.50 755.50Q0 763 0 784Q0 805 15 820Q30 835 51 835Q72 835 87 820Q102 805 102 784Q102 763 87 748Q72 733 51 733Q30 733 15 748M159 748Q159 748 151.50 755.50Q144 763 144 784Q144 805 159 820Q174 835 195 835Q216 835 231 820Q246 805 246 784Q246 763 231 748Q216 733 195 733Q174 733 159 748Z"  horiz-adv-x="246" vert-adv-y="1000"  />

      
      <glyph glyph-name="uni0408" unicode="&#x0408;" d="M146 667L220 667L220 128Q220 65 207.50 23.50Q195-18 155-45Q118-69 73-69Q10-69-46-20L-5 38Q36 1 72 1Q108 1 126 26Q146 51 146 128L146 667Z"  horiz-adv-x="306" vert-adv-y="1000"  />

      
      <glyph glyph-name="uni0409" unicode="&#x0409;" d="M154 667L560 667L560 390L650 390Q880 390 880 202Q880 108 821.50 54Q763 0 664 0L486 0L486 597L228 597L228 239Q228 192 227 168.50Q226 145 211.50 102.50Q197 60 168 34Q123-6 54-6Q38-6 14 0L14 70Q34 64 51 64Q90 64 116 90Q134 108 143 141.50Q152 175 153 198Q154 221 154 269L154 667M560 320L560 70L646 70Q731 70 769 107Q804 140 804 202Q804 274 750 303Q719 320 638 320L560 320Z"  horiz-adv-x="922" vert-adv-y="1000"  />

      
      <glyph glyph-name="uni040A" unicode="&#x040A;" d="M160 667L160 390L502 390L502 667L576 667L576 390L666 390Q896 390 896 202Q896 108 837.50 54Q779 0 680 0L502 0L502 320L160 320L160 0L86 0L86 667L160 667M576 320L576 70L662 70Q747 70 785 107Q820 140 820 202Q820 274 766 303Q735 320 654 320L576 320Z"  horiz-adv-x="938" vert-adv-y="1000"  />

      
      <glyph glyph-name="uni040B" unicode="&#x040B;" d="M450 597L248 597L248 401Q341 408 386 408Q505 408 551 372Q612 325 612 217L612 0L538 0L538 207Q538 288 498 317Q470 338 382 338Q323 338 248 331L248 0L174 0L174 597L14 597L14 667L450 667L450 597Z"  horiz-adv-x="678" vert-adv-y="1000"  />

      
      <glyph glyph-name="uni040C" unicode="&#x040C;" d="M160 667L160 381L444 667L544 667L232 356L554 0L452 0L179 306L160 287L160 0L86 0L86 667L160 667M366 882L436 837L283 720L240 752L366 882Z"  horiz-adv-x="568" vert-adv-y="1000"  />

      
      <glyph glyph-name="uni040E" unicode="&#x040E;" d="M8 667L98 667L306 274L480 667L560 667L259 0L179 0L264 186L8 667M135 818L205 841Q211 822 223.50 809.50Q236 797 251.50 792.50Q267 788 275 786.50Q283 785 290 785Q297 785 305 786.50Q313 788 328.50 792.50Q344 797 356.50 809.50Q369 822 375 841L445 818Q441 807 433.50 795Q426 783 409 764Q392 745 361 733Q330 721 290 721Q250 721 219 733Q188 745 171 764Q154 783 146.50 795Q139 807 135 818Z"  horiz-adv-x="568" vert-adv-y="1000"  />

      
      <glyph glyph-name="uni040F" unicode="&#x040F;" d="M86 0L86 667L160 667L160 70L498 70L498 667L572 667L572 0L364 0L364-160L294-160L294 0L86 0Z"  horiz-adv-x="658" vert-adv-y="1000"  />

      
      <glyph glyph-name="uni0410" unicode="&#x0410;" d="M532 0L454 188L170 188L90 0L8 0L315 699L614 0L532 0M199 258L425 258L313 525L199 258Z"  horiz-adv-x="622" vert-adv-y="1000"  />

      
      <glyph glyph-name="uni0411" unicode="&#x0411;" d="M86 0L86 667L417 667L417 597L160 597L160 390L250 390Q480 390 480 202Q480 108 421.50 54Q363 0 264 0L86 0M160 320L160 70L246 70Q331 70 369 107Q404 140 404 202Q404 274 350 303Q319 320 238 320L160 320Z"  horiz-adv-x="530" vert-adv-y="1000"  />

      
      <glyph glyph-name="uni0412" unicode="&#x0412;" d="M86 667L206 667Q306 667 359 625Q419 579 419 487Q419 401 353 356Q417 340 448.50 291.50Q480 243 480 188Q480 143 460.50 105Q441 67 412 44Q356 0 252 0L86 0L86 667M160 597L160 374L216 374Q231 374 245 375.50Q259 377 278.50 383.50Q298 390 312.50 401Q327 412 337 434Q347 456 347 485Q347 516 335 538.50Q323 561 308 572Q293 583 272 589Q251 595 240 596Q229 597 218 597L160 597M160 308L160 70L245 70Q326 70 362 98Q406 130 406 190Q406 257 349 288Q313 308 236 308L160 308Z"  horiz-adv-x="530" vert-adv-y="1000"  />

      
      <glyph glyph-name="uni0413" unicode="&#x0413;" d="M86 0L86 667L390 667L390 597L160 597L160 0L86 0Z"  horiz-adv-x="404" vert-adv-y="1000"  />

      
      <glyph glyph-name="uni0414" unicode="&#x0414;" d="M144 667L550 667L550 70L626 70L626-140L556-140L556 0L84 0L84-140L14-140L14 70Q48 69 76 94.50Q104 120 120 160Q144 221 144 335L144 667M218 597L218 335Q218 212 194 149Q177 104 143 70L476 70L476 597L218 597Z"  horiz-adv-x="640" vert-adv-y="1000"  />

      
      <glyph glyph-name="uni0415" unicode="&#x0415;" d="M432 667L432 597L160 597L160 399L424 399L424 329L160 329L160 70L432 70L432 0L86 0L86 667L432 667Z"  horiz-adv-x="482" vert-adv-y="1000"  />

      
      <glyph glyph-name="uni0416" unicode="&#x0416;" d="M368 667L442 667L442 381L696 667L788 667L508 356L796 0L702 0L458 305L442 287L442 0L368 0L368 287L352 305L108 0L14 0L302 356L22 667L114 667L368 381L368 667Z"  horiz-adv-x="810" vert-adv-y="1000"  />

      
      <glyph glyph-name="uni0417" unicode="&#x0417;" d="M157 536L100 581Q165 678 291 678Q381 678 432 631Q484 584 484 508Q484 459 458.50 422.50Q433 386 392 367Q457 352 491.50 305Q526 258 526 195Q526 91 443 32Q379-12 291-12Q200-12 140 34Q80 80 50 148L122 180Q142 124 188 91Q234 58 294 58Q355 58 396 86Q450 124 450 193Q450 324 272 324L212 324L212 394L272 394Q338 394 373 426Q408 458 408 507Q408 550 381 577Q351 608 291 608Q207 608 157 536Z"  horiz-adv-x="576" vert-adv-y="1000"  />

      
      <glyph glyph-name="uni0418" unicode="&#x0418;" d="M550 0L550 509L86-30L86 667L160 667L160 156L624 695L624 0L550 0Z"  horiz-adv-x="710" vert-adv-y="1000"  />

      
      <glyph glyph-name="uni0419" unicode="&#x0419;" d="M550 0L550 509L86-30L86 667L160 667L160 156L624 695L624 0L550 0M200 818L270 841Q276 822 288.50 809.50Q301 797 316.50 792.50Q332 788 340 786.50Q348 785 355 785Q362 785 370 786.50Q378 788 393.50 792.50Q409 797 421.50 809.50Q434 822 440 841L510 818Q506 807 498.50 795Q491 783 474 764Q457 745 426 733Q395 721 355 721Q315 721 284 733Q253 745 236 764Q219 783 211.50 795Q204 807 200 818Z"  horiz-adv-x="710" vert-adv-y="1000"  />

      
      <glyph glyph-name="uni041A" unicode="&#x041A;" d="M160 667L160 381L444 667L544 667L232 356L554 0L452 0L179 306L160 287L160 0L86 0L86 667L160 667Z"  horiz-adv-x="568" vert-adv-y="1000"  />

      
      <glyph glyph-name="uni041B" unicode="&#x041B;" d="M154 667L560 667L560 0L486 0L486 597L228 597L228 239Q228 192 227 168.50Q226 145 211.50 102.50Q197 60 168 34Q123-6 54-6Q38-6 14 0L14 70Q34 64 51 64Q90 64 116 90Q134 108 143 141.50Q152 175 153 198Q154 221 154 269L154 667Z"  horiz-adv-x="646" vert-adv-y="1000"  />

      
      <glyph glyph-name="uni041C" unicode="&#x041C;" d="M139 0L63 0L174 704L430 141L691 705L795 0L719 0L656 464L429-28L205 464L139 0Z"  horiz-adv-x="863" vert-adv-y="1000"  />

      
      <glyph glyph-name="uni041D" unicode="&#x041D;" d="M160 667L160 396L502 396L502 667L576 667L576 0L502 0L502 326L160 326L160 0L86 0L86 667L160 667Z"  horiz-adv-x="662" vert-adv-y="1000"  />

      
      <glyph glyph-name="uni041E" unicode="&#x041E;" d="M643.50 87Q643.50 87 593.25 37.50Q543-12 397-12Q251-12 150.50 87Q50 186 50 333Q50 481 151 579.50Q252 678 397 678Q542 678 643 579.50Q744 481 744 333Q744 186 643.50 87M589 528Q589 528 549.50 568Q510 608 397 608Q284 608 205 528Q126 448 126 333Q126 218 205 138Q284 58 397 58Q510 58 589 138Q668 218 668 333Q668 448 589 528Z"  horiz-adv-x="794" vert-adv-y="1000"  />

      
      <glyph glyph-name="uni041F" unicode="&#x041F;" d="M86 667L576 667L576 0L502 0L502 597L160 597L160 0L86 0L86 667Z"  horiz-adv-x="662" vert-adv-y="1000"  />

      
      <glyph glyph-name="uni0420" unicode="&#x0420;" d="M86 667L207 667Q321 667 375 620Q436 568 436 477Q436 399 383.50 344.50Q331 290 225 290L160 290L160 0L86 0L86 667M160 597L160 360L221 360Q287 360 324.50 392Q362 424 362 481Q362 597 215 597L160 597Z"  horiz-adv-x="456" vert-adv-y="1000"  />

      
      <glyph glyph-name="uni0421" unicode="&#x0421;" d="M596 612L596 520Q556 560 509 582Q452 608 394 608Q279 608 202.50 527.50Q126 447 126 330Q126 204 209.50 131Q293 58 395 58Q459 58 519 89Q561 110 596 145L596 53Q505-12 395-12Q247-12 148.50 87Q50 186 50 331Q50 480 149.50 579Q249 678 399 678Q509 678 596 612Z"  horiz-adv-x="646" vert-adv-y="1000"  />

      
      <glyph glyph-name="uni0422" unicode="&#x0422;" d="M412 597L250 597L250 0L176 0L176 597L14 597L14 667L412 667L412 597Z"  horiz-adv-x="426" vert-adv-y="1000"  />

      
      <glyph glyph-name="uni0423" unicode="&#x0423;" d="M8 667L98 667L306 274L480 667L560 667L259 0L179 0L264 186L8 667Z"  horiz-adv-x="568" vert-adv-y="1000"  />

      
      <glyph glyph-name="uni0424" unicode="&#x0424;" d="M374 0L374 94L356 94Q285 94 229.50 111Q174 128 141 154Q108 180 86.50 216Q65 252 57.50 285.50Q50 319 50 354Q50 389 57.50 422.50Q65 456 86.50 492Q108 528 141 554Q174 580 229.50 597Q285 614 356 614L374 614L374 694L448 694L448 614L466 614Q537 614 592.50 597Q648 580 681 554Q714 528 735.50 492Q757 456 764.50 422.50Q772 389 772 354Q772 319 764.50 285.50Q757 252 735.50 216Q714 180 681 154Q648 128 592.50 111Q537 94 466 94L448 94L448 0L374 0M374 164L374 544L354 544Q289 544 242 527Q195 510 171 480.50Q147 451 136.50 420Q126 389 126 354Q126 319 136.50 288Q147 257 171 227.50Q195 198 242 181Q289 164 354 164L374 164M448 544L448 164L468 164Q533 164 580 181Q627 198 651 227.50Q675 257 685.50 288Q696 319 696 354Q696 389 685.50 420Q675 451 651 480.50Q627 510 580 527Q533 544 468 544L448 544Z"  horiz-adv-x="822" vert-adv-y="1000"  />

      
      <glyph glyph-name="uni0425" unicode="&#x0425;" d="M14 0L211 345L32 667L116 667L254 416L396 667L480 667L297 345L490 0L406 0L253 274L98 0L14 0Z"  horiz-adv-x="504" vert-adv-y="1000"  />

      
      <glyph glyph-name="uni0426" unicode="&#x0426;" d="M86 0L86 667L160 667L160 70L498 70L498 667L572 667L572 70L648 70L648-140L578-140L578 0L86 0Z"  horiz-adv-x="662" vert-adv-y="1000"  />

      
      <glyph glyph-name="uni0427" unicode="&#x0427;" d="M430 0L430 286Q337 279 292 279Q173 279 127 315Q66 362 66 470L66 667L140 667L140 480Q140 399 180 370Q208 349 296 349Q355 349 430 356L430 667L504 667L504 0L430 0Z"  horiz-adv-x="590" vert-adv-y="1000"  />

      
      <glyph glyph-name="uni0428" unicode="&#x0428;" d="M86 0L86 667L160 667L160 70L424 70L424 667L498 667L498 70L762 70L762 667L836 667L836 0L86 0Z"  horiz-adv-x="922" vert-adv-y="1000"  />

      
      <glyph glyph-name="uni0429" unicode="&#x0429;" d="M86 0L86 667L160 667L160 70L424 70L424 667L498 667L498 70L762 70L762 667L836 667L836 70L912 70L912-140L842-140L842 0L86 0Z"  horiz-adv-x="926" vert-adv-y="1000"  />

      
      <glyph glyph-name="uni042A" unicode="&#x042A;" d="M174 0L174 597L14 597L14 667L248 667L248 390L338 390Q568 390 568 202Q568 108 509.50 54Q451 0 352 0L174 0M248 320L248 70L334 70Q419 70 457 107Q492 140 492 202Q492 274 438 303Q407 320 326 320L248 320Z"  horiz-adv-x="610" vert-adv-y="1000"  />

      
      <glyph glyph-name="uni042B" unicode="&#x042B;" d="M86 0L86 667L160 667L160 390L250 390Q480 390 480 202Q480 108 421.50 54Q363 0 264 0L86 0M160 320L160 70L246 70Q331 70 369 107Q404 140 404 202Q404 274 350 303Q319 320 238 320L160 320M550 667L624 667L624 0L550 0L550 667Z"  horiz-adv-x="710" vert-adv-y="1000"  />

      
      <glyph glyph-name="uni042C" unicode="&#x042C;" d="M86 0L86 667L160 667L160 390L250 390Q480 390 480 202Q480 108 421.50 54Q363 0 264 0L86 0M160 320L160 70L246 70Q331 70 369 107Q404 140 404 202Q404 274 350 303Q319 320 238 320L160 320Z"  horiz-adv-x="522" vert-adv-y="1000"  />

      
      <glyph glyph-name="uni042D" unicode="&#x042D;" d="M50 520L50 612Q146 678 267 678Q416 678 505.50 580.50Q595 483 595 331Q595 182 507 85Q419-12 271-12Q151-12 50 53L50 145Q80 114 127 91Q196 58 271 58Q372 58 446 129Q520 200 519 310L130 310L130 380L516 380Q508 477 440.50 542.50Q373 608 272 608Q201 608 137 580Q86 556 50 520Z"  horiz-adv-x="645" vert-adv-y="1000"  />

      
      <glyph glyph-name="uni042E" unicode="&#x042E;" d="M160 389L262 389Q280 514 373.50 596Q467 678 599 678Q747 678 843.50 581Q940 484 940 333Q940 184 843 86Q746-12 599-12Q454-12 359 85Q264 182 259 319L160 319L160 0L86 0L86 667L160 667L160 389M787 529Q787 529 748.50 568.50Q710 608 599 608Q488 608 411.50 529Q335 450 335 333Q335 216 411.50 137Q488 58 599 58Q710 58 787 137Q864 216 864 333Q864 450 787 529Z"  horiz-adv-x="990" vert-adv-y="1000"  />

      
      <glyph glyph-name="uni042F" unicode="&#x042F;" d="M30 0L226 296Q158 303 114 338Q56 385 56 474Q56 556 102 607Q156 667 268 667L424 667L424 0L350 0L350 292L310 292L120 0L30 0M350 597L278 597Q198 597 164 562Q132 528 132 476Q132 417 170 386Q206 358 272 358L350 358L350 597Z"  horiz-adv-x="510" vert-adv-y="1000"  />

      
      <glyph glyph-name="uni0430" unicode="&#x0430;" d="M386 356L386 415L458 415L458 0L386 0L386 58Q332-12 244-12Q160-12 101 46Q42 104 42 208Q42 310 100.50 367.50Q159 425 244 425Q334 425 386 356M252 361Q195 361 155.50 320.50Q116 280 116 208Q116 139 152.50 95.50Q189 52 252 52Q315 52 352.50 97Q390 142 390 207Q390 281 348 321Q306 361 252 361Z"  horiz-adv-x="526" vert-adv-y="1000"  />

      
      <glyph glyph-name="uni0431" unicode="&#x0431;" d="M388 700L468 700Q457 663 430.50 637.50Q404 612 382.50 603Q361 594 332 587Q327 586 308 581.50Q289 577 279 574Q269 571 253 566Q237 561 224 554Q211 547 200 539Q162 510 138.50 458.50Q115 407 113 349L115 349Q160 425 266 425Q359 425 420.50 362Q482 299 482 206Q482 112 419 50Q356-12 255-12Q168-12 112 40Q42 104 42 254Q42 515 160 596Q169 602 179 607.50Q189 613 200.50 617.50Q212 622 220 625.50Q228 629 242.50 632.50Q257 636 262.50 637.50Q268 639 284.50 642.50Q301 646 305 647Q345 656 363 668.50Q381 681 388 700M365.50 320Q365.50 320 344.25 340.50Q323 361 262 361Q201 361 158.50 319.50Q116 278 116 206Q116 134 159 93Q202 52 262 52Q322 52 365 93Q408 134 408 206Q408 279 365.50 320Z"  horiz-adv-x="524" vert-adv-y="1000"  />

      
      <glyph glyph-name="uni0432" unicode="&#x0432;" d="M68 415L225 415Q282 415 312 391Q348 362 348 313Q348 259 303 230Q334 222 355 202Q388 170 388 122Q388 62 345 28Q308 0 247 0L68 0L68 415M140 246L216 246Q245 246 262 258Q282 273 282 301Q282 326 262 341Q247 351 204 351L140 351L140 246M140 64L229 64Q275 64 294 78Q318 96 318 124Q318 154 297 171Q278 186 232 186L140 186L140 64Z"  horiz-adv-x="430" vert-adv-y="1000"  />

      
      <glyph glyph-name="uni0433" unicode="&#x0433;" d="M68 0L68 415L314 415L314 349L140 349L140 0L68 0Z"  horiz-adv-x="318" vert-adv-y="1000"  />

      
      <glyph glyph-name="uni0434" unicode="&#x0434;" d="M98 415L390 415L390 66L452 66L452-110L386-110L386 0L70 0L70-110L4-110L4 66Q56 67 81 120Q98 155 98 230L98 415M318 66L318 349L170 349L170 193Q170 110 120 66L318 66Z"  horiz-adv-x="460" vert-adv-y="1000"  />

      
      <glyph glyph-name="uni0435" unicode="&#x0435;" d="M376 139L436 106Q415 66 385 39Q328-12 247-12Q163-12 102.50 42.50Q42 97 42 205Q42 300 96.50 362.50Q151 425 243 425Q347 425 400 349Q442 289 439 193L116 193Q117 130 155 91Q193 52 248 52Q297 52 333 82Q361 106 376 139M121 253L365 253Q356 302 322.50 331.50Q289 361 243 361Q198 361 163.50 330.50Q129 300 121 253Z"  horiz-adv-x="481" vert-adv-y="1000"  />

      
      <glyph glyph-name="uni0436" unicode="&#x0436;" d="M262 415L334 415L334 245L490 415L574 415L394 223L592 0L502 0L348 175L334 161L334 0L262 0L262 161L248 175L94 0L4 0L202 223L22 415L106 415L262 245L262 415Z"  horiz-adv-x="596" vert-adv-y="1000"  />

      
      <glyph glyph-name="uni0437" unicode="&#x0437;" d="M122 309L72 350Q96 385 125 402Q164 425 216 425Q279 425 314 396Q350 365 350 317Q350 259 303 230Q333 223 351 203Q380 172 380 127Q380 60 326 20Q282-12 208-12Q142-12 97 23Q63 48 42 94L104 120Q115 92 141 73Q169 52 209 52Q256 52 279 68Q308 87 308 126Q308 158 283 174Q262 188 215 188L173 188L173 254L208 254Q246 254 262 265Q284 279 284 303Q284 331 266 346Q249 361 213 361Q182 361 156 345Q134 331 122 309Z"  horiz-adv-x="422" vert-adv-y="1000"  />

      
      <glyph glyph-name="uni0438" unicode="&#x0438;" d="M68 415L140 415L140 141L424 447L424 0L352 0L352 277L68-29L68 415Z"  horiz-adv-x="492" vert-adv-y="1000"  />

      
      <glyph glyph-name="uni0439" unicode="&#x0439;" d="M68 415L140 415L140 141L424 447L424 0L352 0L352 277L68-29L68 415M104 594L164 617Q182 557 249 557Q316 557 334 617L394 594Q378 549 339.50 523Q301 497 249 497Q197 497 158.50 523Q120 549 104 594Z"  horiz-adv-x="492" vert-adv-y="1000"  />

      
      <glyph glyph-name="uni043A" unicode="&#x043A;" d="M68 415L140 415L140 245L308 415L396 415L216 230L418 0L324 0L162 182L140 161L140 0L68 0L68 415Z"  horiz-adv-x="422" vert-adv-y="1000"  />

      
      <glyph glyph-name="uni043B" unicode="&#x043B;" d="M382 415L382 0L310 0L310 349L162 349L162 162Q162 81 130 42Q94-2 30-2Q22-2 8 0L8 66Q18 64 24 64Q59 64 76 91Q90 113 90 162L90 415L382 415Z"  horiz-adv-x="450" vert-adv-y="1000"  />

      
      <glyph glyph-name="uni043C" unicode="&#x043C;" d="M20 0L120 447L292 109L460 447L560 0L486 0L431 257L290-29L147 257L94 0L20 0Z"  horiz-adv-x="580" vert-adv-y="1000"  />

      
      <glyph glyph-name="uni043D" unicode="&#x043D;" d="M68 0L68 415L140 415L140 245L336 245L336 415L408 415L408 0L336 0L336 179L140 179L140 0L68 0Z"  horiz-adv-x="476" vert-adv-y="1000"  />

      
      <glyph glyph-name="uni043E" unicode="&#x043E;" d="M419.50 50Q419.50 50 388.25 19Q357-12 262-12Q167-12 104.50 50Q42 112 42 206Q42 301 104.50 363Q167 425 262 425Q357 425 419.50 363Q482 301 482 206Q482 112 419.50 50M365.50 320Q365.50 320 344.25 340.50Q323 361 262 361Q201 361 158.50 319.50Q116 278 116 206Q116 134 159 93Q202 52 262 52Q322 52 365 93Q408 134 408 206Q408 279 365.50 320Z"  horiz-adv-x="524" vert-adv-y="1000"  />

      
      <glyph glyph-name="uni043F" unicode="&#x043F;" d="M68 415L402 415L402 0L330 0L330 349L140 349L140 0L68 0L68 415Z"  horiz-adv-x="470" vert-adv-y="1000"  />

      
      <glyph glyph-name="uni0440" unicode="&#x0440;" d="M140 58L140-234L68-234L68 415L140 415L140 357Q195 425 282 425Q375 425 429.50 359.50Q484 294 484 205Q484 115 430 51.50Q376-12 285-12Q194-12 140 58M275 52Q336 52 373 96.50Q410 141 410 205Q410 277 369 319Q328 361 274 361Q220 361 178 319Q136 277 136 206Q136 141 174.50 96.50Q213 52 275 52Z"  horiz-adv-x="526" vert-adv-y="1000"  />

      
      <glyph glyph-name="uni0441" unicode="&#x0441;" d="M393 385L393 299Q344 361 263 361Q202 361 159 319.50Q116 278 116 206Q116 134 159 93Q202 52 262 52Q342 52 396 117L396 31Q337-12 264-12Q167-12 104.50 49.50Q42 111 42 205Q42 300 105 362.50Q168 425 264 425Q336 425 393 385Z"  horiz-adv-x="438" vert-adv-y="1000"  />

      
      <glyph glyph-name="uni0442" unicode="&#x0442;" d="M340 349L210 349L210 0L138 0L138 349L8 349L8 415L340 415L340 349Z"  horiz-adv-x="348" vert-adv-y="1000"  />

      
      <glyph glyph-name="uni0443" unicode="&#x0443;" d="M65-234L199 39L8 415L90 415L237 118L372 415L452 415L145-234L65-234Z"  horiz-adv-x="460" vert-adv-y="1000"  />

      
      <glyph glyph-name="uni0444" unicode="&#x0444;" d="M289-234L289-7Q180-7 114 47Q42 105 42 208Q42 310 113 368Q177 422 289 422L289 667L361 667L361 422Q473 422 537 368Q608 310 608 208Q608 105 536 47Q470-7 361-7L361-234L289-234M289 57L289 358Q224 361 178 332Q116 293 116 208Q116 128 174 87Q221 54 289 57M361 358L361 57Q429 54 476 87Q534 128 534 208Q534 293 472 332Q426 361 361 358Z"  horiz-adv-x="650" vert-adv-y="1000"  />

      
      <glyph glyph-name="uni0445" unicode="&#x0445;" d="M8 0L185 222L34 415L122 415L229 274L338 415L426 415L274 221L446 0L358 0L227 169L96 0L8 0Z"  horiz-adv-x="454" vert-adv-y="1000"  />

      
      <glyph glyph-name="uni0446" unicode="&#x0446;" d="M68 0L68 415L140 415L140 66L326 66L326 415L398 415L398 66L466 66L466-110L400-110L400 0L68 0Z"  horiz-adv-x="474" vert-adv-y="1000"  />

      
      <glyph glyph-name="uni0447" unicode="&#x0447;" d="M290 0L290 163Q231 154 192 154Q124 154 91 184Q56 215 56 286L56 415L128 415L128 296Q128 262 137 247Q151 220 200 220Q244 220 290 229L290 415L362 415L362 0L290 0Z"  horiz-adv-x="430" vert-adv-y="1000"  />

      
      <glyph glyph-name="uni0448" unicode="&#x0448;" d="M68 0L68 415L140 415L140 66L300 66L300 415L372 415L372 66L532 66L532 415L604 415L604 0L68 0Z"  horiz-adv-x="672" vert-adv-y="1000"  />

      
      <glyph glyph-name="uni0449" unicode="&#x0449;" d="M68 0L68 415L140 415L140 66L300 66L300 415L372 415L372 66L532 66L532 415L604 415L604 66L672 66L672-110L606-110L606 0L68 0Z"  horiz-adv-x="680" vert-adv-y="1000"  />

      
      <glyph glyph-name="uni044A" unicode="&#x044A;" d="M98 0L98 349L8 349L8 415L170 415L170 256L244 256Q330 256 370 215Q402 183 402 128Q402 70 365 35Q328 0 243 0L98 0M170 64L237 64Q282 64 301 75Q328 93 328 128Q328 164 302 180Q284 192 238 192L170 192L170 64Z"  horiz-adv-x="430" vert-adv-y="1000"  />

      
      <glyph glyph-name="uni044B" unicode="&#x044B;" d="M68 0L68 415L140 415L140 256L214 256Q300 256 340 215Q372 183 372 128Q372 70 335 35Q298 0 213 0L68 0M140 64L207 64Q252 64 271 75Q298 93 298 128Q298 164 272 180Q254 192 208 192L140 192L140 64M422 0L422 415L494 415L494 0L422 0Z"  horiz-adv-x="562" vert-adv-y="1000"  />

      
      <glyph glyph-name="uni044C" unicode="&#x044C;" d="M68 0L68 415L140 415L140 256L214 256Q300 256 340 215Q372 183 372 128Q372 70 335 35Q298 0 213 0L68 0M140 64L207 64Q252 64 271 75Q298 93 298 128Q298 164 272 180Q254 192 208 192L140 192L140 64Z"  horiz-adv-x="400" vert-adv-y="1000"  />

      
      <glyph glyph-name="uni044D" unicode="&#x044D;" d="M42 334L42 404Q94 425 155 425Q260 425 320.50 364Q381 303 381 205Q381 110 319.50 49Q258-12 160-12Q98-12 42 11L42 81Q97 52 159 52Q217 52 259 87.50Q301 123 307 180L88 180L88 244L307 244Q295 299 254 330Q213 361 158 361Q100 361 42 334Z"  horiz-adv-x="423" vert-adv-y="1000"  />

      
      <glyph glyph-name="uni044E" unicode="&#x044E;" d="M140 245L215 245Q225 315 271 363Q330 425 428 425Q524 425 586 363Q648 301 648 206Q648 112 585.50 50Q523-12 428-12Q319-12 257 66Q217 116 211 179L140 179L140 0L68 0L68 415L140 415L140 245M428 361Q368 361 326.50 319.50Q285 278 285 206Q285 133 327 92.50Q369 52 428 52Q488 52 531 93Q574 134 574 206Q574 278 531.50 319.50Q489 361 428 361Z"  horiz-adv-x="690" vert-adv-y="1000"  />

      
      <glyph glyph-name="uni044F" unicode="&#x044F;" d="M20 0L149 171Q143 171 132.50 173Q122 175 102 183Q82 191 69 204Q36 235 36 287Q36 346 73 380Q110 415 195 415L340 415L340 0L268 0L268 167L224 167L106 0L20 0M268 227L268 351L201 351Q154 351 136 340Q110 323 110 289Q110 255 136 239Q155 227 200 227L268 227Z"  horiz-adv-x="408" vert-adv-y="1000"  />

      
      <glyph glyph-name="uni0451" unicode="&#x0451;" d="M377 139L437 106Q416 66 386 39Q330-12 248-12Q164-12 103 43Q42 98 42 205Q42 300 97 362.50Q152 425 244 425Q348 425 401 349Q443 289 440 193L116 193Q117 130 155 91Q193 52 249 52Q300 52 334 82Q362 106 377 139M122 253L366 253Q357 302 323.50 331.50Q290 361 244 361Q199 361 164.50 330.50Q130 300 122 253M125 515Q125 515 117.50 522.50Q110 530 110 550Q110 570 125 585Q140 600 160 600Q180 600 195 585Q210 570 210 550Q210 530 195 515Q180 500 160 500Q140 500 125 515M299 515Q299 515 291.50 522.50Q284 530 284 550Q284 570 299 585Q314 600 334 600Q354 600 369 585Q384 570 384 550Q384 530 369 515Q354 500 334 500Q314 500 299 515Z"  horiz-adv-x="482" vert-adv-y="1000"  />

      
      <glyph glyph-name="uni0452" unicode="&#x0452;" d="M68 0L68 554L0 554L0 614L68 614L68 729L140 729L140 614L340 614L340 554L140 554L140 367Q184 425 259 425Q339 425 378 368Q402 333 402 257L402-90Q402-173 362-207Q330-234 279-234Q252-234 228-225L228-155Q250-164 275-164Q308-164 321-142Q330-127 330-82L330 255Q330 306 311 331Q288 361 243 361Q197 361 170 329Q140 294 140 217L140 0L68 0Z"  horiz-adv-x="470" vert-adv-y="1000"  />

      
      <glyph glyph-name="uni0453" unicode="&#x0453;" d="M68 0L68 415L314 415L314 349L140 349L140 0L68 0M252 666L326 632L192 497L147 521L252 666Z"  horiz-adv-x="318" vert-adv-y="1000"  />

      
      <glyph glyph-name="uni0454" unicode="&#x0454;" d="M393 385L393 299Q341 361 263 361Q212 361 170.50 329.50Q129 298 119 244L336 244L336 180L118 180Q125 123 166 87.50Q207 52 262 52Q342 52 396 117L396 31Q337-12 264-12Q167-12 104.50 49.50Q42 111 42 205Q42 300 105 362.50Q168 425 264 425Q336 425 393 385Z"  horiz-adv-x="438" vert-adv-y="1000"  />

      
      <glyph glyph-name="uni0455" unicode="&#x0455;" d="M298 350L239 319Q222 361 181 361Q160 361 145.50 349Q131 337 131 314Q131 293 144.50 282.50Q158 272 198 255Q277 222 302 191Q324 164 324 124Q324 61 283.50 24.50Q243-12 181-12Q169-12 155-9.50Q141-7 116.50 1.50Q92 10 70 34Q48 58 36 94L98 120Q123 52 182 52Q215 52 232.50 72Q250 92 250 118Q250 132 245.50 142.50Q241 153 230.50 161Q220 169 210.50 174Q201 179 183 187Q103 222 82 248Q63 272 63 309Q63 363 96.50 394Q130 425 184 425Q263 425 298 350Z"  horiz-adv-x="352" vert-adv-y="1000"  />

      
      <glyph glyph-name="uni0456" unicode="&#x0456;" d="M68 415L140 415L140 0L68 0L68 415M68 536Q68 536 60.50 543.50Q53 551 53 572Q53 593 68 608Q83 623 104 623Q125 623 140 608Q155 593 155 572Q155 551 140 536Q125 521 104 521Q83 521 68 536Z"  horiz-adv-x="208" vert-adv-y="1000"  />

      
      <glyph glyph-name="uni0457" unicode="&#x0457;" d="M68 415L140 415L140 0L68 0L68 415M3 515Q3 515-4.50 522.50Q-12 530-12 550Q-12 570 3 585Q18 600 38 600Q58 600 73 585Q88 570 88 550Q88 530 73 515Q58 500 38 500Q18 500 3 515M135 515Q135 515 127.50 522.50Q120 530 120 550Q120 570 135 585Q150 600 170 600Q190 600 205 585Q220 570 220 550Q220 530 205 515Q190 500 170 500Q150 500 135 515Z"  horiz-adv-x="208" vert-adv-y="1000"  />

      
      <glyph glyph-name="uni0458" unicode="&#x0458;" d="M68 415L140 415L140-234L68-234L68 415M68 536Q68 536 60.50 543.50Q53 551 53 572Q53 593 68 608Q83 623 104 623Q125 623 140 608Q155 593 155 572Q155 551 140 536Q125 521 104 521Q83 521 68 536Z"  horiz-adv-x="208" vert-adv-y="1000"  />

      
      <glyph glyph-name="uni0459" unicode="&#x0459;" d="M382 415L382 256L456 256Q542 256 582 215Q614 183 614 128Q614 70 577 35Q540 0 455 0L310 0L310 349L162 349L162 162Q162 81 130 42Q94-2 30-2Q22-2 8 0L8 66Q18 64 24 64Q59 64 76 91Q90 113 90 162L90 415L382 415M382 64L449 64Q494 64 513 75Q540 93 540 128Q540 164 514 180Q496 192 450 192L382 192L382 64Z"  horiz-adv-x="642" vert-adv-y="1000"  />

      
      <glyph glyph-name="uni045A" unicode="&#x045A;" d="M68 0L68 415L140 415L140 258L336 258L336 415L408 415L408 256L482 256Q568 256 608 215Q640 183 640 128Q640 70 603 35Q566 0 481 0L336 0L336 192L140 192L140 0L68 0M408 64L475 64Q520 64 539 75Q566 93 566 128Q566 164 540 180Q522 192 476 192L408 192L408 64Z"  horiz-adv-x="668" vert-adv-y="1000"  />

      
      <glyph glyph-name="uni045B" unicode="&#x045B;" d="M68 0L68 554L0 554L0 614L68 614L68 729L140 729L140 614L340 614L340 554L140 554L140 367Q184 425 259 425Q339 425 378 368Q402 333 402 257L402 0L330 0L330 255Q330 306 311 331Q288 361 243 361Q197 361 170 329Q140 294 140 217L140 0L68 0Z"  horiz-adv-x="470" vert-adv-y="1000"  />

      
      <glyph glyph-name="uni045C" unicode="&#x045C;" d="M68 415L140 415L140 245L308 415L396 415L216 230L418 0L324 0L162 182L140 161L140 0L68 0L68 415M273 666L347 632L213 497L168 521L273 666Z"  horiz-adv-x="422" vert-adv-y="1000"  />

      
      <glyph glyph-name="uni045E" unicode="&#x045E;" d="M65-234L199 39L8 415L90 415L237 118L372 415L452 415L145-234L65-234M95 594L155 617Q173 557 240 557Q307 557 325 617L385 594Q369 549 330.50 523Q292 497 240 497Q188 497 149.50 523Q111 549 95 594Z"  horiz-adv-x="460" vert-adv-y="1000"  />

      
      <glyph glyph-name="uni045F" unicode="&#x045F;" d="M68 0L68 415L140 415L140 66L326 66L326 415L398 415L398 0L266 0L266-140L200-140L200 0L68 0Z"  horiz-adv-x="466" vert-adv-y="1000"  />

      
      <glyph glyph-name="uni0490" unicode="&#x0490;" d="M86 0L86 667L320 667L320 807L390 807L390 597L160 597L160 0L86 0Z"  horiz-adv-x="404" vert-adv-y="1000"  />

      
      <glyph glyph-name="uni0491" unicode="&#x0491;" d="M68 0L68 415L248 415L248 525L314 525L314 349L140 349L140 0L68 0Z"  horiz-adv-x="328" vert-adv-y="1000"  />

      
      <glyph glyph-name="uni2013" unicode="&#x2013;" d="M50 181L50 245L490 245L490 181L50 181Z"  horiz-adv-x="540" vert-adv-y="1000"  />

      
      <glyph glyph-name="uni2014" unicode="&#x2014;" d="M50 181L50 245L710 245L710 181L50 181Z"  horiz-adv-x="760" vert-adv-y="1000"  />

      
      <glyph glyph-name="uni2018" unicode="&#x2018;" d="M206 681L123 450L58 474L159 700L206 681Z"  horiz-adv-x="264" vert-adv-y="1000"  />

      
      <glyph glyph-name="uni2019" unicode="&#x2019;" d="M58 469L139 700L206 676L105 450L58 469Z"  horiz-adv-x="308" vert-adv-y="1000"  />

      
      <glyph glyph-name="uni201A" unicode="&#x201A;" d="M58-133L139 98L206 74L105-152L58-133Z"  horiz-adv-x="308" vert-adv-y="1000"  />

      
      <glyph glyph-name="uni201C" unicode="&#x201C;" d="M206 681L123 450L58 474L159 700L206 681M352 681L271 450L204 474L305 700L352 681Z"  horiz-adv-x="410" vert-adv-y="1000"  />

      
      <glyph glyph-name="uni201D" unicode="&#x201D;" d="M58 469L139 700L206 676L105 450L58 469M204 469L287 700L352 676L251 450L204 469Z"  horiz-adv-x="454" vert-adv-y="1000"  />

      
      <glyph glyph-name="uni201E" unicode="&#x201E;" d="M58-133L139 98L206 74L105-152L58-133M204-133L287 98L352 74L251-152L204-133Z"  horiz-adv-x="454" vert-adv-y="1000"  />

      
      <glyph glyph-name="uni2020" unicode="&#x2020;" d="M248 565L248 729L320 729L320 565L468 565L468 497L320 497L320-176L248-176L248 497L100 497L100 565L248 565Z"  horiz-adv-x="568" vert-adv-y="1000"  />

      
      <glyph glyph-name="uni2021" unicode="&#x2021;" d="M248 565L248 729L320 729L320 565L468 565L468 497L320 497L320 194L468 194L468 126L320 126L320-176L248-176L248 126L100 126L100 194L248 194L248 497L100 497L100 565L248 565Z"  horiz-adv-x="568" vert-adv-y="1000"  />

      
      <glyph glyph-name="uni2022" unicode="&#x2022;" d="M235 241Q235 241 214.50 261.50Q194 282 194 340Q194 398 235 439Q276 480 334 480Q392 480 433 439Q474 398 474 340Q474 282 433 241Q392 200 334 200Q276 200 235 241Z"  horiz-adv-x="668" vert-adv-y="1000"  />

      
      <glyph glyph-name="uni2026" unicode="&#x2026;" d="M90 5Q90 5 82.50 12.50Q75 20 75 40Q75 60 90 75Q105 90 125 90Q145 90 160 75Q175 60 175 40Q175 20 160 5Q145-10 125-10Q105-10 90 5M338 5Q338 5 330.50 12.50Q323 20 323 40Q323 60 338 75Q353 90 373 90Q393 90 408 75Q423 60 423 40Q423 20 408 5Q393-10 373-10Q353-10 338 5M586 5Q586 5 578.50 12.50Q571 20 571 40Q571 60 586 75Q601 90 621 90Q641 90 656 75Q671 60 671 40Q671 20 656 5Q641-10 621-10Q601-10 586 5Z"  horiz-adv-x="746" vert-adv-y="1000"  />

      
      <glyph glyph-name="uni2030" unicode="&#x2030;" d="M75 631Q75 631 96 652Q117 673 178 673Q239 673 281 631Q323 589 323 528Q323 467 281 425Q239 383 178 383Q117 383 75 425Q33 467 33 528Q33 589 75 631M178 438Q214 438 238.50 464.50Q263 491 263 528Q263 565 238.50 591.50Q214 618 178 618Q143 618 118 591.50Q93 565 93 528Q93 491 118 464.50Q143 438 178 438M141 10L530 680L569 658L180-13L141 10M429 241Q429 241 450 262Q471 283 532 283Q593 283 635 241Q677 199 677 138Q677 77 635 35Q593-7 532-7Q471-7 429 35Q387 77 387 138Q387 199 429 241M532 48Q568 48 592.50 74.50Q617 101 617 138Q617 175 592.50 201.50Q568 228 532 228Q497 228 472 201.50Q447 175 447 138Q447 101 472 74.50Q497 48 532 48M779 241Q779 241 800 262Q821 283 882 283Q943 283 985 241Q1027 199 1027 138Q1027 77 985 35Q943-7 882-7Q821-7 779 35Q737 77 737 138Q737 199 779 241M882 48Q918 48 942.50 74.50Q967 101 967 138Q967 175 942.50 201.50Q918 228 882 228Q847 228 822 201.50Q797 175 797 138Q797 101 822 74.50Q847 48 882 48Z"  horiz-adv-x="1060" vert-adv-y="1000"  />

      
      <glyph glyph-name="uni2039" unicode="&#x2039;" d="M112 212L232 66L186 30L36 212L186 400L232 363L112 212Z"  horiz-adv-x="282" vert-adv-y="1000"  />

      
      <glyph glyph-name="uni203A" unicode="&#x203A;" d="M170 218L50 364L96 400L246 218L96 30L50 67L170 218Z"  horiz-adv-x="282" vert-adv-y="1000"  />

      
      <glyph glyph-name="uni20AC" unicode="&#x20AC;" d="M523 631L523 558Q466 613 366 613Q281 613 232.50 561.50Q184 510 173 427L479 427L458 371L165 371Q165 367 164.50 354.50Q164 342 164 336Q164 328 164.50 315Q165 302 165 298L430 298L410 242L174 242Q186 152 235.50 102.50Q285 53 366 53Q461 53 523 108L523 35Q502 16 458 2.50Q414-11 358-11Q137-11 101 242L27 242L48 298L95 298Q93 316 93 336Q93 342 93.50 354.50Q94 367 94 371L27 371L48 427L100 427Q117 542 180 610Q243 678 358 678Q466 678 523 631Z"  horiz-adv-x="568" vert-adv-y="1000"  />

      
      <glyph glyph-name="uni2116" unicode="&#x2116;" d="M160 0L86 0L86 695L552 166L552 667L626 667L626-30L160 499L160 0M742 625Q742 625 763 646Q784 667 845 667Q906 667 948 625Q990 583 990 522Q990 461 948 419Q906 377 845 377Q784 377 742 419Q700 461 700 522Q700 583 742 625M845 432Q881 432 905.50 458.50Q930 485 930 522Q930 559 905.50 585.50Q881 612 845 612Q810 612 785 585.50Q760 559 760 522Q760 485 785 458.50Q810 432 845 432M720 227L720 297L970 297L970 227L720 227Z"  horiz-adv-x="1020" vert-adv-y="1000"  />

      
      <glyph glyph-name="uni2122" unicode="&#x2122;" d="M234 621L144 621L144 287L94 287L94 621L4 621L4 667L234 667L234 621M316 287L270 287L335 691L478 376L625 691L686 287L640 287L605 544L478 268L353 544L316 287Z"  horiz-adv-x="722" vert-adv-y="1000"  />

      

  </font>
</defs>
</svg>
